Джезабель / Jessabelle (2014) BDRip 720p | DUB | Чистый звук

Рейтинг: 5/5
 
(голосов: 1)
1


Джезабель / Jessabelle (2014) BDRip 720p | DUB | Чистый звук
Информация о фильме
Название: Джезабель
Оригинальное название: Jessabelle
Год выхода: 2014
Жанр: Ужасы, триллер
Режиссер: Кевин Гротерт
В ролях: Сара Снук, Джоэль Картер, Марк Веббер, Дэвид Эндрюс, Ана де ла Регера, Эмбер Стивенс, Крис Эллис, Брайан Хэллисей, Вон Уилсон, Лариса Олейник

О фильме: После трагической аварии, унесшей жизни мужа Джесси и их еще нерожденного ребенка, девушка оказывается прикована к инвалидному креслу и вынуждена переехать к своему отцу, проживающему в отдаленном особняке. Вскоре она обнаруживает загадочные видеозаписи, снятые ее давно умершей матерью. Джесси с ужасом понимает, что таинственные предсказания начинают сбываться…

Джезабель / Jessabelle (2014) BDRip 720p | DUB | Чистый звук

Выпущено: США / Lionsgate
Продолжительность: 01:30:06
Озвучивание: Дублированный [чистый звук] Официальный

Файл
Формат: MKV (x264)
Качество: BDRip 720p [HDAccess]
Видео: 8323 kb/s, 1280x720
Аудио: Russian: AC3, 384 kb/s (2 ch) / English: DTS, 1509 kb/s (6 ch)
Дополнительно: Сохранены оригинальные чаптеры
Размер: 6.56 Gb


[spoiler=Media Info]General
Unique ID : 219908788958971484420780267498644731341 (0xA570E465300C858897DBD672501075CD)
Complete name : /home16/teamkz/downloads/torrents/Jessabelle.2014.D.BDRip.720p.mkv
Format : Matroska
Format version : Version 2
File size : 6.56 GiB
Duration : 1h 30mn
Overall bit rate : 10.4 Mbps
Encoded date : UTC 2015-04-02 10:02:55
Writing application : mkvmerge v7.8.0 ('River Man') 64bit built on Mar 27 2015 16:31:37
Writing library : libebml v1.3.1 + libmatroska v1.4.2
_STATISTICS_WRITING_APP : mkvmerge v7.8.0 ('River Man') 64bit built on Mar 27 2015 16:31:37
_STATISTICS_WRITING_DATE_UTC : 2015-04-02 10:02:55
_STATISTICS_TAGS : BPS DURATION NUMBER_OF_FRAMES NUMBER_OF_BYTES
DURATION : 01:30:07.008000000
NUMBER_OF_FRAMES : 168969
NUMBER_OF_BYTES : 259536384

Video
ID : 1
Format : AVC
Format/Info : Advanced Video Codec
Format profile : High@L4.1
Format settings, CABAC : Yes
Format settings, ReFrames : 9 frames
Codec ID : V_MPEG4/ISO/AVC
Duration : 1h 30mn
Bit rate : 8 325 Kbps
Width : 1 280 pixels
Height : 720 pixels
Display aspect ratio : 16:9
Frame rate mode : Constant
Frame rate : 23.976 fps
Color space : YUV
Chroma subsampling : 4:2:0
Bit depth : 8 bits
Scan type : Progressive
Bits/(Pixel*Frame) : 0.377
Stream size : 5.24 GiB (80%)
Writing library : x264 core 142 r2431kMod ac76440
Encoding settings : cabac=1 / ref=9 / deblock=1:-3:-3 / analyse=0x3:0x133 / me=umh / subme=11 / psy=1 / fade_compensate=0.00 / psy_rd=1.00:0.00 / mixed_ref=1 / me_range=24 / chroma_me=1 / trellis=2 / 8x8dct=1 / cqm=0 / deadzone=21,11 / fast_pskip=0 / chroma_qp_offset=-2 / threads=24 / lookahead_threads=4 / sliced_threads=0 / nr=0 / decimate=0 / interlaced=0 / bluray_compat=0 / constrained_intra=0 / fgo=0 / bframes=8 / b_pyramid=2 / b_adapt=2 / b_bias=0 / direct=3 / weightb=1 / open_gop=0 / weightp=2 / keyint=250 / keyint_min=23 / scenecut=40 / intra_refresh=0 / rc=crf / mbtree=0 / crf=16.5000 / qcomp=0.70 / qpmin=0 / qpmax=69 / qpstep=4 / ip_ratio=1.30 / pb_ratio=1.20 / aq=1:0.80
Language : English
Default : Yes
Forced : No
_STATISTICS_WRITING_APP : mkvmerge v7.8.0 ('River Man') 64bit built on Mar 27 2015 16:31:37
_STATISTICS_WRITING_DATE_UTC : 2015-04-02 10:02:55
_STATISTICS_TAGS : BPS DURATION NUMBER_OF_FRAMES NUMBER_OF_BYTES
DURATION : 01:30:07.027000000
NUMBER_OF_FRAMES : 129639
NUMBER_OF_BYTES : 5765127124

Audio #1
ID : 2
Format : AC-3
Format/Info : Audio Coding 3
Mode extension : CM (complete main)
Format settings, Endianness : Big
Codec ID : A_AC3
Duration : 1h 30mn
Bit rate mode : Constant
Bit rate : 384 Kbps
Channel(s) : 2 channels
Channel positions : Front: L R
Sampling rate : 48.0 KHz
Bit depth : 16 bits
Compression mode : Lossy
Stream size : 248 MiB (4%)
Default : Yes
Forced : No

Audio #2
ID : 3
Format : DTS
Format/Info : Digital Theater Systems
Mode : 16
Format settings, Endianness : Big
Codec ID : A_DTS
Duration : 1h 30mn
Bit rate mode : Constant
Bit rate : 1 509 Kbps
Channel(s) : 6 channels
Channel positions : Front: L C R, Side: L R, LFE
Sampling rate : 48.0 KHz
Bit depth : 24 bits
Compression mode : Lossy
Stream size : 973 MiB (14%)
Language : English
Default : No
Forced : No

Text #1
ID : 4
Format : UTF-8
Codec ID : S_TEXT/UTF8
Codec ID/Info : UTF-8 Plain Text
Language : English
Default : No
Forced : No

Text #2
ID : 5
Format : UTF-8
Codec ID : S_TEXT/UTF8
Codec ID/Info : UTF-8 Plain Text
Title : SDH
Language : English
Default : No
Forced : No

Menu
00:00:00.000 : en:00:00:00.000
00:09:31.654 : en:00:09:31.654
00:14:48.137 : en:00:14:48.137
00:23:01.255 : en:00:23:01.255
00:28:35.088 : en:00:28:35.088
00:37:37.714 : en:00:37:37.714
00:43:15.635 : en:00:43:15.635
00:49:42.855 : en:00:49:42.855
00:57:29.029 : en:00:57:29.029
01:05:09.697 : en:01:05:09.697
01:14:00.269 : en:01:14:00.269
01:23:28.337 : en:01:23:28.337[/spoiler]
ншоты]Джезабель / Jessabelle (2014) BDRip 720p | DUB | Чистый звукДжезабель / Jessabelle (2014) BDRip 720p | DUB | Чистый звукДжезабель / Jessabelle (2014) BDRip 720p | DUB | Чистый звук[/spoiler]

Добавлен:
2 апреля 2015 21:14


Размер: 6.56 GB
freeleech: Раздают: 0 Качают: 0 Скачали: 3
Мультитрекер 
Раздают: 14 Качают: 12 Скачали: 9

Добавить комментарий

У данной раздачи еще нет комментариев. Хотите начать обсуждение?