Обманутая / Deceived (1991) WEB-DLRip | DUB | AVO

Рейтинг: 5/5
 
(голосов: 1)
1


Обманутая / Deceived (1991) WEB-DLRip | DUB | AVO

Информация о торренте
Название: Обманутая
Оригинальное название: Deceived
Год: 1991
Жанр: триллер, драма, мелодрама
Режиссер: Дэмиэн Харрис
Роли исполняли: Голди Хоун, Джон Херд, Эшли Пелдон, Робин Бартлетт, Том Ирвин, Эми Райт

О фильме: Адриана Сандерс очень счастлива. У нее есть все: хорошая работа, любящий муж и прекрасная дочка. Но после смерти мужа в автокатастрофе Адриане становятся известны странные подробности из его прошлого. Он был не тем, за кого себя выдавал. И Адриана осознает, что была жестоко обманута...

Страна: США
Продолжительность: 01:48:15
Перевод: Дубляж [iTunes], Авторский (одноголосый, закадровый) А.Гаврилов

Файл
Кодек: XviD
Качество: WEB-DLRip
Видео: 704x384, 23,976 fps, 1536 kbps
Aудио 1: 48 kHz, AC3, 2/0 (L,R) ch, ~192.00 kbps.....|Дубляж, iTunes Russia|
Aудио 2: 48 kHz, AC3, 2/0 (L,R) ch, ~192.00 kbps.....Авторский (одноголосый, закадровый) А.Гаврилов
[spoiler=MI]Общее
Полное имя : Deceived.1991.WEB-DLRip.2xRus.avi
Формат : AVI
Формат/Информация : Audio Video Interleave
Размер файла : 1,46 Гбайт
Продолжительность : 1 ч. 48 м.
Общий поток : 1934 Кбит/сек
Программа кодирования : VirtualDubMod 1.5.10.2 (build 2542/release)
Библиотека кодирования : VirtualDubMod build 2542/release

Видео
Идентификатор : 0
Формат : MPEG-4 Visual
Профиль формата : Advanced Simple@L5
Параметр BVOP формата : 1
Параметр QPel формата : Нет
Параметр GMC формата : Без точки перехода
Параметр матрицы формата : Выборочная
Идентификатор кодека : XVID
Идентификатор кодека/Подсказка : XviD
Продолжительность : 1 ч. 48 м.
Битрейт : 1536 Кбит/сек
Ширина : 704 пикс.
Высота : 384 пикс.
Соотношение сторон : 16:9
Частота кадров : 23,976 кадр/сек
Цветовое пространство : YUV
Подвыборка цветности : 4:2:0
Битовая глубина : 8 бит
Тип развёртки : Прогрессивная
Метод сжатия : С потерями
Бит/(Пиксели*Кадры) : 0.237
Размер потока : 1,16 Гбайт (79%)
Библиотека кодирования : XviD 73

Аудио #1
Идентификатор : 1
Формат : AC-3
Формат/Информация : Audio Coding 3
Расширение режима : CM (complete main)
Идентификатор кодека : 2000
Продолжительность : 1 ч. 48 м.
Вид битрейта : Постоянный
Битрейт : 192 Кбит/сек
Канал(ы) : 2 канала(ов)
Расположение каналов : Front: L R
Частота : 48,0 КГц
Битовая глубина : 16 бит
Метод сжатия : С потерями
Размер потока : 149 Мбайт (10%)
Выравнивание : Разделение по промежуткам
Продолжительность промежутка : 42 мс. (1,00 видеокадр)
Время предзагрузки промежутка : 500 ms

Аудио #2
Идентификатор : 2
Формат : AC-3
Формат/Информация : Audio Coding 3
Расширение режима : CM (complete main)
Идентификатор кодека : 2000
Продолжительность : 1 ч. 48 м.
Вид битрейта : Постоянный
Битрейт : 192 Кбит/сек
Канал(ы) : 2 канала(ов)
Расположение каналов : Front: L R
Частота : 48,0 КГц
Битовая глубина : 16 бит
Метод сжатия : С потерями
Размер потока : 149 Мбайт (10%)
Выравнивание : Разделение по промежуткам
Продолжительность промежутка : 42 мс. (1,00 видеокадр)
Время предзагрузки промежутка : 500 ms[/spoiler]
[spoiler=Скриншоты]Обманутая / Deceived (1991) WEB-DLRip | DUB | AVOОбманутая / Deceived (1991) WEB-DLRip | DUB | AVOОбманутая / Deceived (1991) WEB-DLRip | DUB | AVOОбманутая / Deceived (1991) WEB-DLRip | DUB | AVOОбманутая / Deceived (1991) WEB-DLRip | DUB | AVOОбманутая / Deceived (1991) WEB-DLRip | DUB | AVOОбманутая / Deceived (1991) WEB-DLRip | DUB | AVOОбманутая / Deceived (1991) WEB-DLRip | DUB | AVO[spoiler=Скриншоты]

Добавлен:
17 января 2015 23:35


Размер: 1.46 GB
freeleech: Раздают: 0 Качают: 0 Скачали: 0
Мультитрекер 
Раздают: 77 Качают: 10 Скачали: 60

Добавить комментарий

У данной раздачи еще нет комментариев. Хотите начать обсуждение?