Нация Z / Z Nation [1 сезон] (2014) WEB-DL 720p | BaibaKo

Рейтинг: 5/5
 
(голосов: 1)
1


Нация Z / Z Nation [1 сезон] (2014) WEB-DL 720p | BaibaKo

Информация о торренте
Название: Нация Z
Оригинальное название: Z Nation
Год: 2014
Жанр: экшен, хоррор, зомби, апокалипсис
Режиссер: Джон Хайамс, Карл Шэфер / John Hyams, Karl Schaefer
Роли исполняли: Гарольд Перрино, Том Эверетт Скотт, Ди Джей Куаллс, Майкл Уэлш, Келлита Смит, Анастасия Баранова, Расселл Ходжкинсон, Кит Аллан

О фильме: Спустя три года после того, как вирус зомби распространился и выпотрошил всю страну, команда героев должна перевезти необычный груз. Это - единственный выживший после непосредственного воздействия чумы. В Калифорнии последняя функционирующая вирусная лаборатория ждет его крови. Хотя антитела, которые он несет, являются последней надеждой мира получить вакцину, он скрывает мрачную тайну, которая угрожает им всем. Выживание человечества под угрозой, когда разношерстная группа предпринимает путешествие длиной в пять тысяч километров по опустошенной, постапокалиптической Америке.

Официальный сайт

Страна: США
Продолжительность: ~ 00:43:01
Перевод: Профессиональный (многоголосый закадровый) BaibaKo

Файл
Кодек: MPEG-4 AVC/H.264
Качество: 720p WEB-DL
Видео: AVC, 4090 Кбит/сек, 1280x720 (1.778), 23.976 кадр/сек, 0.185 Бит/Пиксели
Звук:
Аудио rus: AC-3 6 каналов 48,0 КГц 384 Кбит/сек | BaibaKo
Аудио eng: AC-3 6 каналов 48,0 КГц 384 Кбит/сек
Субтитры: отсутствуют

Семпл

[spoiler=Релиз]
[spoiler=Список серий]
01. Puppies and Kittens / Щенки и котята
02. Fracking Zombies / Грёбаные зомби
03. Philly Feast / Пир в Филадельфии
04. Full Metal Zombie / Гангста зомби мочилово
05. Home Sweet Zombie / Зомби милый дом
06. .Resurrection Z / Воскрешение Z
07. Welcome to the Fu-Bar / Добро пожаловать в улетный бар
08. Zunami / Зунами
09. Die Zombie Die Again / Сдохни, зомби, сдохни уже!
10. Going Nuclear / В шаге от ядерного взрыва
11. Sisters of Mercy / Сёстры милосердия
12. Murphys Law / Закон Мёрфи
13. Doctor of the Dead / Доктор мертвяков
[/spoiler]
[spoiler=MediaInfo]
Общее
Уникальный идентификатор : 189471866959405802411292718720914946201 (0x8E8AF447BC770E8C9C02032CAF09F899)
Полное имя : G:FilmsZ Nation.720Z.Nation.s01e01.HD720p.WEB-DL.Rus.Eng.BaibaKo.tv.mkv
Формат : Matroska
Версия формата : Version 4 / Version 2
Размер файла : 1,49 Гбайт
Продолжительность : 43 м.
Общий поток : 4956 Кбит/сек
Дата кодирования : UTC 2014-09-13 21:57:31
Программа кодирования : mkvmerge v6.7.0 ('Back to the Ground') 64bit built on Jan 8 2014 15:10:52
Библиотека кодирования : libebml v1.3.0 + libmatroska v1.4.1

Видео
Идентификатор : 1
Формат : AVC
Формат/Информация : Advanced Video Codec
Профиль формата : High@L3.1
Параметр CABAC формата : Нет
Параметр ReFrames формата : 2 кадра
Идентификатор кодека : V_MPEG4/ISO/AVC
Продолжительность : 43 м.
Битрейт : 4090 Кбит/сек
Ширина : 1280 пикселей
Высота : 720 пикселей
Соотношение сторон : 16:9
Режим частоты кадров : Постоянный
Частота кадров : 23,976 кадра/сек
Цветовое пространство : YUV
Субдискретизация насыщенности : 4:2:0
Битовая глубина : 8 бит
Тип развёртки : Прогрессивная
Бит/(Пиксели*Кадры) : 0.185
Размер потока : 1,23 Гбайт (83%)
Язык : English
Default : Да
Forced : Нет
Основные цвета : BT.709
Характеристики трансфера : BT.709
Коэффициенты матрицы : BT.709

Аудио #1
Идентификатор : 2
Формат : AC-3
Формат/Информация : Audio Coding 3
Расширение режима : CM (complete main)
Параметр Endianness формата : Big
Идентификатор кодека : A_AC3
Продолжительность : 43 м.
Вид битрейта : Постоянный
Битрейт : 384 Кбит/сек
Каналы : 6 каналов
Расположение каналов : Front: L C R, Side: L R, LFE
Частота : 48,0 КГц
Битовая глубина : 16 бит
Метод сжатия : С потерями
Размер потока : 118 Мбайт (8%)
Язык : Russian
Default : Да
Forced : Нет

Аудио #2
Идентификатор : 3
Формат : AC-3
Формат/Информация : Audio Coding 3
Расширение режима : CM (complete main)
Параметр Endianness формата : Big
Идентификатор кодека : A_AC3
Продолжительность : 43 м.
Вид битрейта : Постоянный
Битрейт : 384 Кбит/сек
Каналы : 6 каналов
Расположение каналов : Front: L C R, Side: L R, LFE
Частота : 48,0 КГц
Битовая глубина : 16 бит
Метод сжатия : С потерями
Размер потока : 118 Мбайт (8%)
Язык : English
Default : Нет
Forced : Нет

[/spoiler]
[spoiler=Скриншоты]Нация Z / Z Nation [1 сезон] (2014) WEB-DL 720p | BaibaKoНация Z / Z Nation [1 сезон] (2014) WEB-DL 720p | BaibaKoНация Z / Z Nation [1 сезон] (2014) WEB-DL 720p | BaibaKoНация Z / Z Nation [1 сезон] (2014) WEB-DL 720p | BaibaKo[/spoiler]
[spoiler= Раздача ведется путем добавления новых серий]
Когда раздача ведётся путём добавления новых серий, при каждом добавлении создётся новый торрент. Чтобы начать докачку новой серии, пользователям необходимо сделать следующее:
(1) остановить скачивание,
(2) удалить старый торрент у себя из клиента (старые серии удалять не надо),
(3) скачать новый торрент и запустить его у себя в клиенте вместо старого, при этом указать клиенту путь в старую папку, куда и должно происходить скачивание новых серий.
Ваш клиент при этом должен произвести хеширование (проверку) старой папки (если не производит сам - помогите ему сделать это), и будет докачивать только те серии, которых у вас ещё нет. Старые серии при этом не удаляются, а продолжают раздаваться!
Eсли вы уже удалили старые серии, то предотвратить повторную закачку старых серий можно, отжав галочку в соответсвующих местах при запуске нового торрента. По возможности, желательно не удалять старые серии как можно дольше, чтобы релизёр не столько продолжал раздавать старые серии, а смог сконцентрироваться на новых.
[/spoiler]

Добавлен:
2 января 2015 14:12


Размер: 18.84 GB
freeleech: Раздают: 0 Качают: 0 Скачали: 0
Мультитрекер 
Раздают: 71 Качают: 45 Скачали: 63

Добавить комментарий

У данной раздачи еще нет комментариев. Хотите начать обсуждение?