Аватар: Легенда о Корре / The Legend of Korra [4 сезон 1-11 серии из 13 ] (2014) WEB-DLRip | LE-Production

Рейтинг: 10/5
 
(голосов: 1)
1


Аватар: Легенда о Корре / The Legend of Korra [4 сезон 1-11 серии из 13 ] (2014) WEB-DLRip | LE-Production
Информация о торренте
Название: Аватар: Легенда о Корре (Книга 4 - Баланс.)
Оригинальное название: The Legend of Korra
Год: 2014
Жанр: мультфильм, фэнтези, боевик, приключения, семейный
Режиссер: Хоаким Дос Сантос / Joaquim Dos Santos, Ки Хьюн Рю / Ki Hyun Ryu
Роли исполняли: Джанет Вэрни, Ди Брэдли Бейкер, Дэвид Фаустино, П.Дж. Бирн, Дж.К. Симмонс, Джефф Беннетт, Сейшелл Гэбриел, Дарси Роуз Бернс, Стивен Блум, Логан Уэллс
Роли озвучивали: Тимиркан Сиюхов и Маргарита Щелкунова

О фильме: Мир вступает в новую эру! Гармоническое сближение вызвало сдвиг в энергетическом поле планеты, а Республиканский город спустя недели всё ещё не оправился после битвы Корры и УнаВаату. Весь город зарос и превратился в джунгли, которые новоприбывшие духи считают своим домом. Но не ждут ли наш город ещё какие-то перемены?

Продолжительность: 01 х ~00:22:00
Перевод: Любительский (двухголосый) [LE-Production]
Субтитры: отсутствуют

Файл
Формат видео: AVI
Качество: WEB-DLRip
Видео: 720 x 400 (1.80:1), 23.976 fps, XviD build 73 ~1702 kbps avg, 0.246 bit/pixel
Аудио #1: русский: 48 kHz, AC3 Dolby Digital, 3/2 (L,C,R,l,r) + LFE ch, ~384.00 kbps avg | LE-Production |
Аудио #2: русский: 48 kHz, AC3 Dolby Digital, 3/2 (L,C,R,l,r) + LFE ch, ~384.00 kbps avg | Оригинал |


[/spoiler]
[spoiler=MediaInfo]Общее
Полное имя : the.legend.of.korra.s04.web-dlrip.le-productionthe.legend.of.korra.s04e01.after.all.these.years.web-dlrip.le-production.avi
Формат : AVI
Формат/Информация : Audio Video Interleave
Размер файла : 408 Мбайт
Продолжительность : 22 м.
Общий поток : 2484 Кбит/сек
Программа кодирования : VirtualDubMod 1.5.10.2 (build 2540/release)
Библиотека кодирования : VirtualDubMod build 2540/release

Видео
Идентификатор : 0
Формат : MPEG-4 Visual
Профиль формата : Advanced Simple@L5
Параметр BVOP формата : 1
Параметр QPel формата : Нет
Параметр GMC формата : Без точки перехода
Параметр матрицы формата : Выборочная
Идентификатор кодека : XVID
Идентификатор кодека/Подсказка : XviD
Продолжительность : 22 м.
Битрейт : 1702 Кбит/сек
Ширина : 720 пикс.
Высота : 400 пикс.
Соотношение сторон : 16:9
Частота кадров : 23,976 кадр/сек
Цветовое пространство : YUV
Подвыборка цветности : 4:2:0
Битовая глубина : 8 бит
Тип развёртки : Прогрессивная
Метод сжатия : С потерями
Бит/(Пиксели*Кадры) : 0.246
Размер потока : 280 Мбайт (69%)
Библиотека кодирования : XviD 73

Аудио #1
Идентификатор : 1
Формат : AC-3
Формат/Информация : Audio Coding 3
Расширение режима : CM (complete main)
Идентификатор кодека : 2000
Продолжительность : 22 м.
Вид битрейта : Постоянный
Битрейт : 384 Кбит/сек
Канал(ы) : 6 канала(ов)
Расположение каналов : Front: L C R, Side: L R, LFE
Частота : 48,0 КГц
Битовая глубина : 16 бит
Метод сжатия : С потерями
Размер потока : 63,1 Мбайт (15%)
Выравнивание : Разделение по промежуткам
Продолжительность промежутка : 42 мс. (1,00 видеокадр)
Время предзагрузки промежутка : 500 ms
Заголовок : Rus (le-production)

Аудио #2
Идентификатор : 2
Формат : AC-3
Формат/Информация : Audio Coding 3
Расширение режима : CM (complete main)
Идентификатор кодека : 2000
Продолжительность : 22 м.
Вид битрейта : Постоянный
Битрейт : 384 Кбит/сек
Канал(ы) : 6 канала(ов)
Расположение каналов : Front: L C R, Side: L R, LFE
Частота : 48,0 КГц
Битовая глубина : 16 бит
Метод сжатия : С потерями
Размер потока : 63,1 Мбайт (15%)
Выравнивание : Разделение по промежуткам
Продолжительность промежутка : 42 мс. (1,00 видеокадр)
Время предзагрузки промежутка : 500 ms
Заголовок : Eng

[/spoiler]
[spoiler=Скриншоты]
Аватар: Легенда о Корре / The Legend of Korra [4 сезон 1-11 серии из 13 ] (2014) WEB-DLRip | LE-ProductionАватар: Легенда о Корре / The Legend of Korra [4 сезон 1-11 серии из 13 ] (2014) WEB-DLRip | LE-ProductionАватар: Легенда о Корре / The Legend of Korra [4 сезон 1-11 серии из 13 ] (2014) WEB-DLRip | LE-ProductionАватар: Легенда о Корре / The Legend of Korra [4 сезон 1-11 серии из 13 ] (2014) WEB-DLRip | LE-Production
Аватар: Легенда о Корре / The Legend of Korra [4 сезон 1-11 серии из 13 ] (2014) WEB-DLRip | LE-ProductionАватар: Легенда о Корре / The Legend of Korra [4 сезон 1-11 серии из 13 ] (2014) WEB-DLRip | LE-ProductionАватар: Легенда о Корре / The Legend of Korra [4 сезон 1-11 серии из 13 ] (2014) WEB-DLRip | LE-ProductionАватар: Легенда о Корре / The Legend of Korra [4 сезон 1-11 серии из 13 ] (2014) WEB-DLRip | LE-Production
[/spoiler]

Добавлен:
15 декабря 2014 12:31


Размер: 4.39 GB
freeleech: Раздают: 0 Качают: 0 Скачали: 0
Мультитрекер 
Раздают: 102 Качают: 57 Скачали: 295

[15-12-2014 11:31]: Добавлена 11 серия

Добавить комментарий

У данной раздачи еще нет комментариев. Хотите начать обсуждение?