Последняя любовь мистера Моргана / Mr. Morgan's Last Love (2013) BDRip-AVC | DUB | DVO

Рейтинг: 5/5
 
(голосов: 1)
1


Последняя любовь мистера Моргана / Mr. Morgan's Last Love (2013) BDRip-AVC | DUB | DVO
Название: Последняя любовь мистера Моргана
Оригинальное название: Mr. Morgan's Last Love
Год: 2013
Жанр: драма, комедия
Режиссер: Сандра Неттельбек
Роли исполняли: Майкл Кейн, Клеманс Поэзи, Джиллиан Андерсон, Джастин Кирк, Джейн Александер (I), Ричард Хоуп, Аликс Пуасон, Анн Альваро, Кристель Корнил, Янник Шуара

О фильме: Пожилой американский профессор Мэтью Морган одиноко и замкнуто живет в Париже, преподает философию в университете. Жена, которую он очень любил, умерла несколько лет назад. Кажется, что всё главное в его жизни осталось в прошлом. Так и было, пока однажды в автобусе ему, едва не упавшему, не протянула руку помощи Полин, молодая, открытая, веселая парижанка…



Страна: Германия, Бельгия, США, Франция
Студия: Bavaria Pictures GmbH, Elzvir Films, Kaminski.Stiehm.Film GmbH, SCOPE Invest, Scope Pictures, Sidney Kimmel Entertainment
Продолжительность: 01:55:48
Перевод: Дубляж, любительский двухголосый

Файл
Кодек: MPEG-4 AVC
Качество: BDRip-AVC
Видео: 3300 Кбит/с, 1024x552, 23.976 кадр/с
Аудио #1: Русский (AC3, 6 ch, 384 Кбит/с) / Дубляж
Аудио #2: Русский (AC3, 6 ch, 384 Кбит/с) / Любительский двухголосый
Аудио #3: Английский (AC3, 6 ch, 448 Кбит/с)
Субтитры: Русские (forced), английские

Семпл

[spoiler=Инфо-файл]Общее
Уникальный идентификатор : 236995973673156957714093650409912516239 (0xB24BC3A5356B314989C6A32E94EFBE8F)
Полное имя : G:TorrentsPoslednjaja.ljubov.mistera.Morgana.2013.x264.BDRip.(AVC)-MediaClub.mkv
Формат : Matroska
Версия формата : Version 2
Размер файла : 3,65 Гбайт
Продолжительность : 1 ч. 55 м.
Общий поток : 4518 Кбит/сек
Название фильма : -=Released by Kortec for MediaClub=-
Дата кодирования : UTC 2014-09-14 17:19:34
Программа кодирования : mkvmerge v4.0.0 ('The Stars were mine') сборка от Jun 6 2010 16:18:42
Библиотека кодирования : libebml v1.0.0 + libmatroska v1.0.0

Видео
Идентификатор : 1
Формат : AVC
Формат/Информация : Advanced Video Codec
Профиль формата : High@L4.1
Параметр CABAC формата : Да
Параметр ReFrames формата : 9 кадров
Идентификатор кодека : V_MPEG4/ISO/AVC
Продолжительность : 1 ч. 55 м.
Битрейт : 3300 Кбит/сек
Ширина : 1024 пикселя
Высота : 552 пикселя
Соотношение сторон : 1,85:1
Режим частоты кадров : Постоянный
Частота кадров : 23,976 кадра/сек
Цветовое пространство : YUV
Субдискретизация насыщенности : 4:2:0
Битовая глубина : 8 бит
Тип развёртки : Прогрессивная
Бит/(Пиксели*Кадры) : 0.243
Размер потока : 2,60 Гбайт (71%)
Библиотека кодирования : x264 core 130 r2273 b3065e6
Настройки программы : cabac=1 / ref=9 / deblock=1:-2:-2 / analyse=0x3:0x133 / me=umh / subme=11 / psy=1 / psy_rd=1.00:0.10 / mixed_ref=1 / me_range=32 / chroma_me=1 / trellis=2 / 8x8dct=1 / cqm=0 / deadzone=21,11 / fast_pskip=0 / chroma_qp_offset=-3 / threads=6 / lookahead_threads=1 / sliced_threads=0 / nr=0 / decimate=0 / interlaced=0 / bluray_compat=0 / constrained_intra=0 / bframes=8 / b_pyramid=2 / b_adapt=2 / b_bias=0 / direct=3 / weightb=1 / open_gop=0 / weightp=2 / keyint=240 / keyint_min=23 / scenecut=40 / intra_refresh=0 / rc=2pass / mbtree=0 / bitrate=3300 / ratetol=1.0 / qcomp=0.60 / qpmin=0 / qpmax=69 / qpstep=4 / cplxblur=20.0 / qblur=0.5 / ip_ratio=1.40 / pb_ratio=1.30 / aq=1:0.80
Язык : English
Default : Нет
Forced : Нет

Аудио #1
Идентификатор : 2
Формат : AC-3
Формат/Информация : Audio Coding 3
Расширение режима : CM (complete main)
Параметр Endianness формата : Big
Идентификатор кодека : A_AC3
Продолжительность : 1 ч. 55 м.
Вид битрейта : Постоянный
Битрейт : 384 Кбит/сек
Каналы : 6 каналов
Расположение каналов : Front: L C R, Side: L R, LFE
Частота : 48,0 КГц
Битовая глубина : 16 бит
Метод сжатия : С потерями
Размер потока : 318 Мбайт (8%)
Заголовок : Дубляж (лицензия)
Язык : Russian
Default : Да
Forced : Да

Аудио #2
Идентификатор : 3
Формат : AC-3
Формат/Информация : Audio Coding 3
Расширение режима : CM (complete main)
Параметр Endianness формата : Big
Идентификатор кодека : A_AC3
Продолжительность : 1 ч. 55 м.
Вид битрейта : Постоянный
Битрейт : 384 Кбит/сек
Каналы : 6 каналов
Расположение каналов : Front: L C R, Side: L R, LFE
Частота : 48,0 КГц
Битовая глубина : 16 бит
Метод сжатия : С потерями
Размер потока : 318 Мбайт (8%)
Заголовок : Дима Чепусов и Света Чистохина
Язык : Russian
Default : Нет
Forced : Нет

Аудио #3
Идентификатор : 4
Формат : AC-3
Формат/Информация : Audio Coding 3
Расширение режима : CM (complete main)
Параметр Endianness формата : Big
Идентификатор кодека : A_AC3
Продолжительность : 1 ч. 55 м.
Вид битрейта : Постоянный
Битрейт : 448 Кбит/сек
Каналы : 6 каналов
Расположение каналов : Front: L C R, Side: L R, LFE
Частота : 48,0 КГц
Битовая глубина : 16 бит
Метод сжатия : С потерями
Размер потока : 371 Мбайт (10%)
Язык : English
Default : Нет
Forced : Нет

Текст #1
Идентификатор : 5
Формат : UTF-8
Идентификатор кодека : S_TEXT/UTF8
Идентификатор кодека/Информация : UTF-8 Plain Text
Заголовок : forced
Язык : Russian
Default : Нет
Forced : Да

Текст #2
Идентификатор : 6
Формат : UTF-8
Идентификатор кодека : S_TEXT/UTF8
Идентификатор кодека/Информация : UTF-8 Plain Text
Язык : English
Default : Нет
Forced : Нет

[/spoiler]
[spoiler=Скриншоты]Последняя любовь мистера Моргана / Mr. Morgan's Last Love (2013) BDRip-AVC | DUB | DVOПоследняя любовь мистера Моргана / Mr. Morgan's Last Love (2013) BDRip-AVC | DUB | DVO
Последняя любовь мистера Моргана / Mr. Morgan's Last Love (2013) BDRip-AVC | DUB | DVOПоследняя любовь мистера Моргана / Mr. Morgan's Last Love (2013) BDRip-AVC | DUB | DVO
[/spoiler]
[spoiler=О релизе]Аудио #1: Дубляж
Аудио #2: Любительский двухголосый (Jimmy J)
Озвучка: Jimmy J. - Дима Чепусов и Света Чистохина;
Перевод: Мария Самородова
Рип: Kortec

Добавлен:
15 сентября 2014 15:45


Размер: 3.65 GB
freeleech: Раздают: 0 Качают: 0 Скачали: 1
Мультитрекер 
Раздают: 126 Качают: 24 Скачали: 43

Добавить комментарий

У данной раздачи еще нет комментариев. Хотите начать обсуждение?