Барби: Марипоса и Принцесса-фея / Barbie: Mariposa & The Fairy Princess (2013) BDRip 720 | DUB

Рейтинг: 5/5
 
(голосов: 1)
1


Барби: Марипоса и Принцесса-фея / Barbie: Mariposa & The Fairy Princess (2013) BDRip 720 | DUB
Информация о торренте
Название: Барби: Марипоса и Принцесса-фея
Оригинальное название: Barbie: Mariposa & The Fairy Princess
Год: 2013
Жанр: мультфильм, фэнтези, приключения
Режиссер: Уильям Лау / William Lau
Роли исполняли: Келли Шеридан, Марика Хендрикс, Табита Сен-Жермен, Кэтлин Барр, Мари Девереукс, Алессандро Джулиани, Джейн Барр, Алистэр Эбелл, Расселл Робертс, Сэм Винсент...

О фильме: Марипосу ждут новые волшебные приключения, ведь она, как посол Сказочной страны, отправляется налаживать дружбу с соседями, Кристальными феями Светящейся долины. Ей не сразу удается найти общий язык с Королем, зато с ето застенчивой дочерью, принцессой Катанией, они быстро становятся настоящими подругами! Вскоре из-за досадного недоразумения Марипосе и Зи приходится вернуться домой, где они сталкиваются с коварной волшебницей, намеревающейся уничтожить Светящуюся долину. Марипоса спешит на помощь подруге Катании, и вместе девочки побеждают зло и доказывают, что лучший способ найти верного друга - самому стать настоящим другом!...

Страна: США
Продолжительность: 01:19:29
Перевод: Дубляж

Файл
Кодек: h264
Качество: BDRip 720 от SuperMin
Видео: 1280x720 (16:9), 3600 kbps, 23.976 fps, 0.163 bit/pixel
Звук: Русский (AC-3, 6ch, 384kbps)

[spoiler=Скриншоты]Барби: Марипоса и Принцесса-фея / Barbie: Mariposa & The Fairy Princess (2013) BDRip 720 | DUBБарби: Марипоса и Принцесса-фея / Barbie: Mariposa & The Fairy Princess (2013) BDRip 720 | DUBБарби: Марипоса и Принцесса-фея / Barbie: Mariposa & The Fairy Princess (2013) BDRip 720 | DUB[/spoiler]
[spoiler=MI]General
Unique ID : 233016945828742280266628822287386416285 (0xAF4D6E6D17BEB4D29A1E5F469D6C149D)
Complete name : H:МУЛЬТЫБАРБИБАРБИ - МАРИПОСА И ПРИНЦЕССА-ФЕЯ.mkv
Format : Matroska
Format version : Version 4 / Version 2
File size : 2.18 GiB
Duration : 1h 19mn
Overall bit rate : 3 926 Kbps
Encoded date : UTC 2014-09-03 07:58:21
Writing application : mkvmerge v6.9.1 ('Blue Panther') 64bit built on Apr 18 2014 18:23:38
Writing library : libebml v1.3.0 + libmatroska v1.4.1
DURATION : 01:16:07.232000000
NUMBER_OF_FRAMES : 142726
NUMBER_OF_BYTES : 219227136
_STATISTICS_WRITING_APP : mkvmerge v7.1.0 ('Good Love') 64bit built on Jul 27 2014 13:06:55
_STATISTICS_WRITING_DATE_UTC : 2014-09-02 09:41:06
_STATISTICS_TAGS : BPS DURATION NUMBER_OF_FRAMES NUMBER_OF_BYTES

Video
ID : 1
Format : AVC
Format/Info : Advanced Video Codec
Format profile : High@L4.1
Format settings, CABAC : Yes
Format settings, ReFrames : 9 frames
Codec ID : V_MPEG4/ISO/AVC
Duration : 1h 19mn
Bit rate : 3 600 Kbps
Width : 1 280 pixels
Height : 720 pixels
Display aspect ratio : 16:9
Frame rate mode : Constant
Frame rate : 23.976 fps
Color space : YUV
Chroma subsampling : 4:2:0
Bit depth : 8 bits
Scan type : Progressive
Bits/(Pixel*Frame) : 0.163
Stream size : 1.92 GiB (88%)
Writing library : x264 core 142 r2409kMod d6b4e63
Encoding settings : cabac=1 / ref=9 / deblock=1:0:0 / analyse=0x3:0x133 / me=umh / subme=10 / psy=1 / fade_compensate=0.00 / psy_rd=1.00:0.00 / mixed_ref=1 / me_range=32 / chroma_me=1 / trellis=2 / 8x8dct=1 / cqm=0 / deadzone=21,11 / fast_pskip=0 / chroma_qp_offset=-2 / threads=3 / lookahead_threads=1 / sliced_threads=0 / nr=0 / decimate=1 / interlaced=0 / bluray_compat=0 / constrained_intra=0 / fgo=0 / bframes=5 / b_pyramid=2 / b_adapt=1 / b_bias=0 / direct=3 / weightb=1 / open_gop=0 / weightp=2 / keyint=250 / keyint_min=25 / scenecut=40 / intra_refresh=0 / rc_lookahead=60 / rc=2pass / mbtree=1 / bitrate=3600 / ratetol=1.0 / qcomp=0.60 / qpmin=0 / qpmax=69 / qpstep=4 / cplxblur=20.0 / qblur=0.5 / ip_ratio=1.40 / aq=1:1.00
Default : Yes
Forced : No

Audio
ID : 2
Format : AC-3
Format/Info : Audio Coding 3
Mode extension : CM (complete main)
Format settings, Endianness : Big
Codec ID : A_AC3
Duration : 1h 19mn
Bit rate mode : Constant
Bit rate : 384 Kbps
Channel count : 6 channels
Channel positions : Front: L C R, Side: L R, LFE
Sampling rate : 48.0 KHz
Bit depth : 16 bits
Compression mode : Lossy
Stream size : 218 MiB (10%)
Language : Russian
Default : Yes
Forced : No

Добавлен:
3 сентября 2014 22:11


Размер: 2.18 GB
freeleech: Раздают: 0 Качают: 0 Скачали: 2
Мультитрекер 
Раздают: 51 Качают: 40 Скачали: 20

Добавить комментарий

У данной раздачи еще нет комментариев. Хотите начать обсуждение?