Самые шокирующие гипотезы [23.09] (2015) SATRip

Рейтинг: 5/5
 
(голосов: 1)
1


Самые шокирующие гипотезы [23.09] (2015) SATRip
Информация о фильме
Название: Самые шокирующие гипотезы
Год выхода: 2015
Жанр: Документальный
Режиссер: Артемий Гринчевский

О фильме: 'Самые шокирующие гипотезы' - документальный проект телеканала 'Рен ТВ'! Мы дадим новые ответы на старые вопросы и зададим свои. Факты, о которых долго молчали наши коллеги-журналисты, и независимая оценка событий, изменивших мир. Расследования самых сенсационных историй и свежий взгляд на, казалось бы, общеизвестные исторические факты. Поиск закономерностей и параллелей в самых невероятных явлениях нашей жизни, новости из всех областей человеческих знаний и загадки потаённых уголков нашего подсознания.

Продолжительность: ~00:48:00
Перевод: Не требуется

Файл
Кодек: XviD
Качество: SATRip
Видео: XviD, 1800 Кбит/с, 704x448
Звук: МР3, 2 ch, 128 Кбит/с

[spoiler=Скриншоты]Самые шокирующие гипотезы [23.09] (2015) SATRipСамые шокирующие гипотезы [23.09] (2015) SATRipСамые шокирующие гипотезы [23.09] (2015) SATRipСамые шокирующие гипотезы [23.09] (2015) SATRip[spoiler=Острожно - спойлер!][spoiler=MediaInfo]
Общее
Полное имя : D:SSHG.2015.09.23.ryby.tozhe.ludi.SATRip.avi
Формат : AVI
Формат/Информация : Audio Video Interleave
Размер файла : 664 Мбайт
Продолжительность : 47 м.
Общий поток : 1938 Кбит/сек
Библиотека кодирования : VirtualDub build 32817/release

Видео
Идентификатор : 0
Формат : MPEG-4 Visual
Профиль формата : Advanced Simple@L5
Параметр BVOP формата : 2
Параметр QPel формата : Нет
Параметр GMC формата : Без точки перехода
Параметр матрицы формата : Default (MPEG)
Идентификатор кодека : XVID
Идентификатор кодека/Подсказка : XviD
Продолжительность : 47 м.
Битрейт : 1800 Кбит/сек
Ширина : 704 пикселя
Высота : 448 пикселей
Соотношение сторон : 16:10
Частота кадров : 25,000 кадров/сек
Цветовое пространство : YUV
Субдискретизация насыщенности : 4:2:0
Битовая глубина : 8 бит
Тип развёртки : Прогрессивная
Метод сжатия : С потерями
Бит/(Пиксели*Кадры) : 0.228
Размер потока : 617 Мбайт (93%)
Библиотека кодирования : XviD 1.2.1 (UTC 2008-12-04)

Аудио
Идентификатор : 1
Формат : MPEG Audio
Версия формата : Version 1
Профиль формата : Layer 3
Режим : Joint stereo
Расширение режима : MS Stereo
Идентификатор кодека : 55
Идентификатор кодека/Подсказка : MP3
Продолжительность : 47 м.
Вид битрейта : Постоянный
Битрейт : 128 Кбит/сек
Каналы : 2 канала
Частота : 48,0 КГц
Метод сжатия : С потерями
Размер потока : 43,9 Мбайт (7%)
Выравнивание : Разделение по промежуткам
Продолжительность промежутка : 40 мс. (1,00 видеокадр)
Время предзагрузки промежутка : 500 мс.[/spoiler]

Добавлен:
24 сентября 2015 09:35


Размер: 664.11 MB
freeleech: Раздают: 0 Качают: 0 Скачали: 0
Мультитрекер 
Раздают: 5 Качают: 6 Скачали: 5

Добавить комментарий

У данной раздачи еще нет комментариев. Хотите начать обсуждение?